Laila Majnu 2018 Hindi 720p HDRip x264 AAC { TaRa }.mkv

  • Category Movies
  • Type Bollywood
  • Language Hindi
  • Total size 1.3 GB
  • Uploaded By SkTara
  • Downloads 1073
  • Last checked 49 minutes ago
  • Date uploaded 1 day ago
  • Seeders 46
  • Leechers 12

Laila Majnu

DramaRomance

Laila is a free-spirited girl from a conservative family who firmly believes in living for the present. Qais, a spoilt brat, falls head over heels in love with her. Their families, however, are warring over property, which leads to self-destruction, pain and bleeding hearts.

Infohash : E2053A49BBD829D695B79B9B8FFAB3FAC54DE01D


Laila Majnu 2018 Hindi 720p HDRip x264 AAC { TaRa }.mkv


===================================================================
General
Complete name : Laila Majnu 2018 Hindi 720p HDRip x264 AAC { TaRa }.mkv
Format : Matroska
Format version : Version 4
File size : 1.29 GiB
Duration : 2 h 12 min
Overall bit rate : 1 393 kb/s
===================================================================
Video
ID : 1
Format : AVC
Format/Info : Advanced Video Codec
Format profile : [email protected]
Format settings : CABAC / 4 Ref Frames
Format settings, CABAC : Yes
Format settings, ReFrames : 4 frames
Codec ID : V_MPEG4/ISO/AVC
Duration : 2 h 12 min
Bit rate : 1 266 kb/s
Width : 1 280 pixels
Height : 544 pixels
Display aspect ratio : 2.35:1
Frame rate mode : Constant
Frame rate : 25.000 FPS
Color space : YUV
Chroma subsampling : 4:2:0
Bit depth : 8 bits
Scan type : Progressive
Bits/(Pixel*Frame) : 0.073
Stream size : 1.17 GiB (91%)
Title : .....::::: TaRa :::::.....
Language : Hindi
Default : Yes
Forced : No
===================================================================
Audi=
ID : 2
Format : AAC LC
Format/Info : Advanced Audio Codec Low Complexity
Codec ID : A_AAC-2
Duration : 2 h 12 min
Bit rate : 125 kb/s
Channel(s) : 2 channels
Channel layout : L R
Sampling rate : 48.0 kHz
Frame rate : 46.875 FPS (1024 SPF)
Compression mode : Lossy
Delay relative to video : -21 ms
Stream size : 118 MiB (9%)
Title : .....::::: TaRa :::::.....
Language : Hindi
Default : Yes
Forced : No
===================================================================







































Files:

Laila Majnu 2018 Hindi 720p HDRip x264 AAC { TaRa }.mkv
  • Torrent TaRa Digital Team.txt (0.6 KB)
  • Torrent TaRa Digital Team PC Info.nfo (6.5 KB)
  • Laila-Majnu-644x362.jpg (47.8 KB)
  • 778299a1066c4cd2a588d7235c6603ee.md.jpg (139.0 KB)
  • Laila Majnu 2018 Hindi 720p HDRip x264 AAC { TaRa }.mkv (1.3 GB)

There are currently no comments. Feel free to leave one :)

Code:

  • udp://tracker.coppersurfer.tk:6969/announce
  • udp://tracker.ex.ua:80/announce
  • udp://shadowshq.yi.org:6969/announce
  • udp://eddie4.nl:6969/announce
  • udp://tracker.leechers-paradise.org:6969/announce
  • udp://tracker.opentrackr.org:1337/announce
  • udp://p4p.arenabg.ch:1337/announce
  • udp://p4p.arenabg.com:1337/announce
  • udp://9.rarbg.me:2720/announce
  • udp://9.rarbg.to:2740/announce
  • udp://tracker.coppersurfer.tk:80/announce
  • udp://tracker.vanitycore.co:6969/announce
  • udp://public.popcorn-tracker.org:6969/announce
  • udp://tracker.opentrackr.org:1337/announce
  • udp://tracker.justseed.it:1337/announce
SitemapMyanmar Education - 616 Words | Supernatural - Season 10 [2016] (DVD) | Bohemian Rhapsody 2018 720p HDCAM