The Big Bang Theory (2007) Season 11 S11 + Extras (1080p BluRay x...

  • Category TV
  • Type HEVC/x265
  • Language English
  • Total size 18.5 GB
  • Uploaded By QxR
  • Downloads 100
  • Last checked 42 minutes ago
  • Date uploaded 11 hours ago
  • Seeders 24
  • Leechers 68

Infohash : AD223D6D48DDFFCA1E43D1F03865634215851F3E



http://www.imdb.com/title/tt0898266/



Note from Encoder:

Includes English, Spanish and Portuguese audio tracks with all available bonus content.





Media Information

Code:

General
Format : Matroska
Format version : Version 4 / Version 2
File size : 727 MiB
Duration : 20 min 42 s
Overall bit rate : 4 909 kb/s
Encoded date : UTC 2018-10-22 22:47:22
Writing application : mkvmerge v20.0.0 ('I Am The Sun') 64-bit
Writing library : libebml v1.3.5 + libmatroska v1.4.8
Cover : Yes
Attachments : cover.jpg
Writing frontend : StaxRip v1.7.0.6

Video
ID : 1
Format : HEVC
Format/Info : High Efficiency Video Coding
Format profile : Main [email protected]@Main
Codec ID : V_MPEGH/ISO/HEVC
Duration : 20 min 41 s
Bit rate : 4 385 kb/s
Width : 1 920 pixels
Height : 1 080 pixels
Display aspect ratio : 16:9
Frame rate mode : Constant
Frame rate : 23.976 (24000/1001) FPS
Color space : YUV
Chroma subsampling : 4:2:0
Bit depth : 10 bits
Bits/(Pixel*Frame) : 0.088
Stream size : 649 MiB (89%)
Writing library : x265 2.9+1-169e76b6bbcc:[Windows][MSVC 1900][64 bit] 10bit
Encoding settings : cpuid=1111039 / frame-threads=3 / numa-pools=8 / wpp / no-pmode / no-pme / no-psnr / no-ssim / log-level=2 / input-csp=1 / input-res=1920x1080 / interlace=0 / total-frames=29777 / level-idc=0 / high-tier=1 / uhd-bd=0 / ref=5 / no-allow-non-conformance / no-repeat-headers / annexb / no-aud / no-hrd / info / hash=0 / no-temporal-layers / open-gop / min-keyint=23 / keyint=250 / gop-lookahead=0 / bframes=8 / b-adapt=2 / b-pyramid / bframe-bias=0 / rc-lookahead=80 / lookahead-slices=4 / scenecut=40 / radl=0 / no-intra-refresh / ctu=64 / min-cu-size=8 / no-rect / no-amp / max-tu-size=32 / tu-inter-depth=1 / tu-intra-depth=1 / limit-tu=0 / rdoq-level=2 / dynamic-rd=0.00 / no-ssim-rd / signhide / no-tskip / nr-intra=0 / nr-inter=0 / no-constrained-intra / no-strong-intra-smoothing / max-merge=4 / limit-refs=3 / limit-modes / me=3 / subme=5 / merange=57 / temporal-mvp / weightp / weightb / no-analyze-src-pics / deblock=-3:-3 / no-sao / no-sao-non-deblock / rd=4 / no-early-skip / no-rskip / no-fast-intra / no-tskip-fast / no-cu-lossless / b-intra / no-splitrd-skip / rdpenalty=0 / psy-rd=1.50 / psy-rdoq=1.80 / no-rd-refine / no-lossless / cbqpoffs=0 / crqpoffs=0 / rc=crf / crf=22.0 / qcomp=0.60 / qpstep=4 / stats-write=0 / stats-read=0 / ipratio=1.40 / pbratio=1.30 / aq-mode=3 / aq-strength=0.90 / cutree / zone-count=0 / no-strict-cbr / qg-size=32 / no-rc-grain / qpmax=69 / qpmin=0 / no-const-vbv / sar=0 / overscan=0 / videoformat=5 / range=0 / colorprim=2 / transfer=2 / colormatrix=2 / chromaloc=0 / display-window=0 / max-cll=0,0 / min-luma=0 / max-luma=1023 / log2-max-poc-lsb=8 / vui-timing-info / vui-hrd-info / slices=1 / no-opt-qp-pps / no-opt-ref-list-length-pps / no-multi-pass-opt-rps / scenecut-bias=0.05 / no-opt-cu-delta-qp / no-aq-motion / no-hdr / no-hdr-opt / no-dhdr10-opt / no-idr-recovery-sei / analysis-reuse-level=5 / scale-factor=0 / refine-intra=0 / refine-inter=0 / refine-mv=0 / no-limit-sao / ctu-info=0 / no-lowpass-dct / refine-mv-type=0 / copy-pic=1 / max-ausize-factor=1.0 / no-dynamic-refine / no-single-sei
Default : Yes
Forced : No

Audio #1
ID : 2
Format : AAC
Format/Info : Advanced Audio Codec
Format profile : LC
Codec ID : A_AAC
Duration : 20 min 41 s
Bit rate : 278 kb/s
Channel(s) : 6 channels
Channel positions : Front: L C R, Side: L R, LFE
Sampling rate : 48.0 kHz
Frame rate : 46.875 FPS (1024 spf)
Compression mode : Lossy
Delay relative to video : 20 ms
Stream size : 41.1 MiB (6%)
Language : English
Default : No
Forced : No

Audio #2
ID : 3
Format : AAC
Format/Info : Advanced Audio Codec
Format profile : HE-AAC / LC
Codec ID : A_AAC
Duration : 20 min 41 s
Bit rate : 80.0 kb/s
Channel(s) : 2 channels
Channel positions : Front: L R
Sampling rate : 48.0 kHz / 24.0 kHz
Frame rate : 23.438 FPS (1024 spf)
Compression mode : Lossy
Delay relative to video : 40 ms
Stream size : 11.8 MiB (2%)
Language : Spanish
Default : No
Forced : No

Audio #3
ID : 4
Format : AAC
Format/Info : Advanced Audio Codec
Format profile : HE-AAC / LC
Codec ID : A_AAC
Duration : 20 min 41 s
Bit rate : 80.0 kb/s
Channel(s) : 2 channels
Channel positions : Front: L R
Sampling rate : 48.0 kHz / 24.0 kHz
Frame rate : 23.438 FPS (1024 spf)
Compression mode : Lossy
Delay relative to video : 40 ms
Stream size : 11.8 MiB (2%)
Language : Portuguese
Default : No
Forced : No

Subtitle #1
ID : 5
Format : VobSub
Muxing mode : zlib
Codec ID : S_VOBSUB
Codec ID/Info : Picture based subtitle format used on DVDs
Duration : 20 min 34 s
Bit rate : 16.5 kb/s
Count of elements : 406
Stream size : 2.44 MiB (0%)
Language : English
Default : No
Forced : No

Subtitle #2
ID : 6
Format : VobSub
Muxing mode : zlib
Codec ID : S_VOBSUB
Codec ID/Info : Picture based subtitle format used on DVDs
Duration : 20 min 34 s
Bit rate : 12.9 kb/s
Count of elements : 328
Stream size : 1.90 MiB (0%)
Language : French
Default : No
Forced : No

Subtitle #3
ID : 7
Format : VobSub
Muxing mode : zlib
Codec ID : S_VOBSUB
Codec ID/Info : Picture based subtitle format used on DVDs
Duration : 20 min 34 s
Bit rate : 14.7 kb/s
Count of elements : 388
Stream size : 2.16 MiB (0%)
Language : Spanish
Default : No
Forced : No

Subtitle #4
ID : 8
Format : VobSub
Muxing mode : zlib
Codec ID : S_VOBSUB
Codec ID/Info : Picture based subtitle format used on DVDs
Duration : 20 min 34 s
Bit rate : 13.7 kb/s
Count of elements : 333
Stream size : 2.02 MiB (0%)
Language : Spanish
Default : No
Forced : No

Subtitle #5
ID : 9
Format : VobSub
Muxing mode : zlib
Codec ID : S_VOBSUB
Codec ID/Info : Picture based subtitle format used on DVDs
Duration : 20 min 34 s
Bit rate : 13.0 kb/s
Count of elements : 332
Stream size : 1.92 MiB (0%)
Language : Portuguese
Default : No
Forced : No

Subtitle #6
ID : 10
Format : VobSub
Muxing mode : zlib
Codec ID : S_VOBSUB
Codec ID/Info : Picture based subtitle format used on DVDs
Duration : 20 min 34 s
Bit rate : 14.0 kb/s
Count of elements : 385
Stream size : 2.06 MiB (0%)
Language : Danish
Default : No
Forced : No

Subtitle #7
ID : 11
Format : VobSub
Muxing mode : zlib
Codec ID : S_VOBSUB
Codec ID/Info : Picture based subtitle format used on DVDs
Duration : 20 min 34 s
Bit rate : 13.9 kb/s
Count of elements : 387
Stream size : 2.05 MiB (0%)
Language : Finnish
Default : No
Forced : No

Subtitle #8
ID : 12
Format : VobSub
Muxing mode : zlib
Codec ID : S_VOBSUB
Codec ID/Info : Picture based subtitle format used on DVDs
Duration : 20 min 34 s
Bit rate : 13.4 kb/s
Count of elements : 386
Stream size : 1.97 MiB (0%)
Language : Norwegian Bokmal
Default : No
Forced : No

Subtitle #9
ID : 13
Format : VobSub
Muxing mode : zlib
Codec ID : S_VOBSUB
Codec ID/Info : Picture based subtitle format used on DVDs
Duration : 20 min 34 s
Bit rate : 13.0 kb/s
Count of elements : 382
Stream size : 1.91 MiB (0%)
Language : Swedish
Default : No
Forced : No

Menu
00:00:00.000 : en:Chapter 01
00:00:54.471 : en:Chapter 02
00:03:17.238 : en:Chapter 03
00:12:08.978 : en:Chapter 04
00:19:21.326 : en:Chapter 05
00:20:14.087 : en:Chapter 06

Source Information

Code:

Release:
The.Big.Bang.Theory.S11.1080p.BluRay.DTS-HD.MA5.1.H.264-o0o (Thanks)


Note From QxR:

Quote:

Whilst we are happy for our releases to be re-posted on a platform we aren't on, please do so in an 'as-is' format. We ask that you do not create a new torrent, include all descriptions you see above including the QxR logo, tags, notes and screenshots. If you'd like to become a permanent poster on a website we don't post to, feel free to get in contact with a QxR member.


Files:

The Big Bang Theory (2007) Season 11 S11 + Extras (1080p BluRay x265 HEVC 10bit AAC 5.1 RCVR) Featurettes
  • 2017 San Diego Comic-Con Panel.mkv (1.7 GB)
  • A BBT History of Time.mkv (60.6 MB)
  • Gag Reel.mkv (97.4 MB)
  • The Big Bang Theory - The Blueprint Of Comedy.mkv (90.8 MB)
  • The Maturation Imperative.mkv (191.5 MB)
  • The Big Bang Theory (2007) - S11E01 - The Proposal Proposal (1080p BluRay x265 RCVR).mkv (726.9 MB)
  • The Big Bang Theory (2007) - S11E02 - The Retraction Reaction (1080p BluRay x265 RCVR).mkv (765.4 MB)
  • The Big Bang Theory (2007) - S11E03 - The Relaxation Integration (1080p BluRay x265 RCVR).mkv (678.2 MB)
  • The Big Bang Theory (2007) - S11E04 - The Explosion Implosion (1080p BluRay x265 RCVR).mkv (676.8 MB)
  • The Big Bang Theory (2007) - S11E05 - The Collaboration Contamination (1080p BluRay x265 RCVR).mkv (626.3 MB)
  • The Big Bang Theory (2007) - S11E06 - The Proton Regeneration (1080p BluRay x265 RCVR).mkv (708.2 MB)
  • The Big Bang Theory (2007) - S11E07 - The Geology Methodology (1080p BluRay x265 RCVR).mkv (664.6 MB)
  • The Big Bang Theory (2007) - S11E08 - The Tesla Recoil (1080p BluRay x265 RCVR).mkv (648.6 MB)
  • The Big Bang Theory (2007) - S11E09 - The Bitcoin Entanglement (1080p BluRay x265 RCVR).mkv (683.8 MB)
  • The Big Bang Theory (2007) - S11E10 - The Confidence Erosion (1080p BluRay x265 RCVR).mkv (692.0 MB)
  • The Big Bang Theory (2007) - S11E11 - The Celebration Reverberation (1080p BluRay x265 RCVR).mkv (636.9 MB)
  • The Big Bang Theory (2007) - S11E12 - The Matrimonial Metric (1080p BluRay x265 RCVR).mkv (781.2 MB)
  • The Big Bang Theory (2007) - S11E13 - The Solo Oscillation (1080p BluRay x265 RCVR).mkv (818.7 MB)
  • The Big Bang Theory (2007) - S11E14 - The Separation Triangulation (1080p BluRay x265 RCVR).mkv (593.9 MB)
  • The Big Bang Theory (2007) - S11E15 - The Novelization Correlation (1080p BluRay x265 RCVR).mkv (709.7 MB)
  • The Big Bang Theory (2007) - S11E16 - The Neonatal Nomenclature (1080p BluRay x265 RCVR).mkv (593.1 MB)
  • The Big Bang Theory (2007) - S11E17 - The Athenaeum Allocation (1080p BluRay x265 RCVR).mkv (657.3 MB)
  • The Big Bang Theory (2007) - S11E18 - The Gates Excitation (1080p BluRay x265 RCVR).mkv (771.4 MB)
  • The Big Bang Theory (2007) - S11E19 - The Tenant Disassociation (1080p BluRay x265 RCVR).mkv (722.5 MB)
  • The Big Bang Theory (2007) - S11E20 - The Reclusive Potential (1080p BluRay x265 RCVR).mkv (834.9 MB)
  • The Big Bang Theory (2007) - S11E21 - The Comet Polarization (1080p BluRay x265 RCVR).mkv (702.9 MB)
  • The Big Bang Theory (2007) - S11E22 - The Monetary Insufficiency (1080p BluRay x265 RCVR).mkv (740.9 MB)
  • The Big Bang Theory (2007) - S11E23 - The Sibling Realignment (1080p BluRay x265 RCVR).mkv (631.8 MB)
  • The Big Bang Theory (2007) - S11E24 - The Bow Tie Asymmetry (1080p BluRay x265 RCVR).mkv (684.8 MB)

There are currently no comments. Feel free to leave one :)

Code:

  • udp://tracker.coppersurfer.tk:6969/announce
  • udp://tracker.zer0day.to:1337/announce
  • udp://tracker.opentrackr.org:1337/announce
  • udp://tracker.torrent.eu.org:451/announce
  • udp://tracker.leechers-paradise.org:6969/announce
  • udp://p4p.arenabg.com:1337/announce
  • udp://tracker.internetwarriors.net:1337/announce
SitemapCasio FX-85GTPLUS Wissenschaftl. Taschenrechner NEU und OVP | round ana brown | Fiction Flashcards