Top Nuovi Giochi | Electronics Cookbook Practical Electronic Recipes with Arduino and Raspberry Pi | Hayate x Blade

The Big Bang Theory (2007) Season 10 S10 + Extras (1080p BluRay x...

  • Category TV
  • Type HEVC/x265
  • Language English
  • Total size 17.8 GB
  • Uploaded By QxR
  • Downloads 105
  • Last checked 40 minutes ago
  • Date uploaded 11 hours ago
  • Seeders 33
  • Leechers 63

Infohash : 2EAAB39C75AA36B61A024144ADCAFA454A0A3768



http://www.imdb.com/title/tt0898266/



Note from Encoder:

Includes English, Spanish and Portuguese audio tracks with all available bonus content.





Media Information

Code:

General
Format : Matroska
Format version : Version 4 / Version 2
File size : 749 MiB
Duration : 21 min 52 s
Overall bit rate : 4 789 kb/s
Encoded date : UTC 2018-10-21 05:58:29
Writing application : mkvmerge v12.0.0 ('Trust / Lust') 64bit
Writing library : libebml v1.3.4 + libmatroska v1.4.5
Cover : Yes
Attachments : cover.jpg

Video
ID : 1
Format : HEVC
Format/Info : High Efficiency Video Coding
Format profile : Main [email protected]@Main
Codec ID : V_MPEGH/ISO/HEVC
Duration : 21 min 52 s
Bit rate : 4 125 kb/s
Width : 1 920 pixels
Height : 1 080 pixels
Display aspect ratio : 16:9
Frame rate mode : Constant
Frame rate : 23.976 (24000/1001) FPS
Color space : YUV
Chroma subsampling : 4:2:0
Bit depth : 10 bits
Bits/(Pixel*Frame) : 0.083
Stream size : 645 MiB (86%)
Writing library : x265 2.9+2-7e978ed93d60:[Windows][MSVC 1900][64 bit] 10bit
Encoding settings : cpuid=1111039 / frame-threads=3 / numa-pools=8 / wpp / no-pmode / no-pme / no-psnr / no-ssim / log-level=2 / input-csp=1 / input-res=1920x1080 / interlace=0 / total-frames=31466 / level-idc=0 / high-tier=1 / uhd-bd=0 / ref=5 / no-allow-non-conformance / no-repeat-headers / annexb / no-aud / no-hrd / info / hash=0 / no-temporal-layers / open-gop / min-keyint=23 / keyint=250 / gop-lookahead=0 / bframes=8 / b-adapt=2 / b-pyramid / bframe-bias=0 / rc-lookahead=80 / lookahead-slices=4 / scenecut=40 / radl=0 / no-intra-refresh / ctu=64 / min-cu-size=8 / no-rect / no-amp / max-tu-size=32 / tu-inter-depth=1 / tu-intra-depth=1 / limit-tu=0 / rdoq-level=2 / dynamic-rd=0.00 / no-ssim-rd / signhide / no-tskip / nr-intra=0 / nr-inter=0 / no-constrained-intra / no-strong-intra-smoothing / max-merge=4 / limit-refs=3 / limit-modes / me=3 / subme=5 / merange=57 / temporal-mvp / weightp / weightb / no-analyze-src-pics / deblock=-3:-3 / no-sao / no-sao-non-deblock / rd=4 / no-early-skip / no-rskip / no-fast-intra / no-tskip-fast / no-cu-lossless / b-intra / no-splitrd-skip / rdpenalty=0 / psy-rd=1.50 / psy-rdoq=1.80 / no-rd-refine / no-lossless / cbqpoffs=0 / crqpoffs=0 / rc=crf / crf=22.0 / qcomp=0.60 / qpstep=4 / stats-write=0 / stats-read=0 / ipratio=1.40 / pbratio=1.30 / aq-mode=3 / aq-strength=0.90 / cutree / zone-count=0 / no-strict-cbr / qg-size=32 / no-rc-grain / qpmax=69 / qpmin=0 / no-const-vbv / sar=0 / overscan=0 / videoformat=5 / range=0 / colorprim=2 / transfer=2 / colormatrix=2 / chromaloc=0 / display-window=0 / max-cll=0,0 / min-luma=0 / max-luma=1023 / log2-max-poc-lsb=8 / vui-timing-info / vui-hrd-info / slices=1 / no-opt-qp-pps / no-opt-ref-list-length-pps / no-multi-pass-opt-rps / scenecut-bias=0.05 / no-opt-cu-delta-qp / no-aq-motion / no-hdr / no-hdr-opt / no-dhdr10-opt / no-idr-recovery-sei / analysis-reuse-level=5 / scale-factor=0 / refine-intra=0 / refine-inter=0 / refine-mv=0 / no-limit-sao / ctu-info=0 / no-lowpass-dct / refine-mv-type=0 / copy-pic=1 / max-ausize-factor=1.0 / no-dynamic-refine / no-single-sei
Default : Yes
Forced : No

Audio #1
ID : 2
Format : AAC
Format/Info : Advanced Audio Codec
Format profile : LC
Codec ID : A_AAC
Duration : 21 min 52 s
Bit rate : 338 kb/s
Channel(s) : 6 channels
Channel positions : Front: L C R, Side: L R, LFE
Sampling rate : 48.0 kHz
Frame rate : 46.875 FPS (1024 spf)
Compression mode : Lossy
Delay relative to video : 20 ms
Stream size : 52.9 MiB (7%)
Language : English
Default : Yes
Forced : No

Audio #2
ID : 3
Format : AAC
Format/Info : Advanced Audio Codec
Format profile : HE-AAC / LC
Codec ID : A_AAC
Duration : 21 min 52 s
Bit rate : 80.0 kb/s
Channel(s) : 2 channels
Channel positions : Front: L R
Sampling rate : 48.0 kHz / 24.0 kHz
Frame rate : 23.438 FPS (1024 spf)
Compression mode : Lossy
Delay relative to video : 40 ms
Stream size : 12.5 MiB (2%)
Language : Spanish
Default : No
Forced : No

Audio #3
ID : 4
Format : AAC
Format/Info : Advanced Audio Codec
Format profile : HE-AAC / LC
Codec ID : A_AAC
Duration : 21 min 52 s
Bit rate : 80.0 kb/s
Channel(s) : 2 channels
Channel positions : Front: L R
Sampling rate : 48.0 kHz / 24.0 kHz
Frame rate : 23.438 FPS (1024 spf)
Compression mode : Lossy
Delay relative to video : 40 ms
Stream size : 12.5 MiB (2%)
Language : Spanish
Default : No
Forced : No

Audio #4
ID : 5
Format : AAC
Format/Info : Advanced Audio Codec
Format profile : HE-AAC / LC
Codec ID : A_AAC
Duration : 21 min 52 s
Bit rate : 80.0 kb/s
Channel(s) : 2 channels
Channel positions : Front: L R
Sampling rate : 48.0 kHz / 24.0 kHz
Frame rate : 23.438 FPS (1024 spf)
Compression mode : Lossy
Delay relative to video : 40 ms
Stream size : 12.5 MiB (2%)
Language : Portuguese
Default : No
Forced : No

Subtitle #1
ID : 6
Format : VobSub
Muxing mode : zlib
Codec ID : S_VOBSUB
Codec ID/Info : Picture based subtitle format used on DVDs
Duration : 21 min 48 s
Bit rate : 10.1 kb/s
Count of elements : 389
Stream size : 1.57 MiB (0%)
Language : English
Default : No
Forced : No

Subtitle #2
ID : 7
Format : VobSub
Muxing mode : zlib
Codec ID : S_VOBSUB
Codec ID/Info : Picture based subtitle format used on DVDs
Duration : 21 min 48 s
Bit rate : 8 519 b/s
Count of elements : 356
Stream size : 1.33 MiB (0%)
Language : French
Default : No
Forced : No

Subtitle #3
ID : 8
Format : VobSub
Muxing mode : zlib
Codec ID : S_VOBSUB
Codec ID/Info : Picture based subtitle format used on DVDs
Duration : 21 min 48 s
Bit rate : 9 368 b/s
Count of elements : 370
Stream size : 1.46 MiB (0%)
Language : Spanish
Default : No
Forced : No

Subtitle #4
ID : 9
Format : VobSub
Muxing mode : zlib
Codec ID : S_VOBSUB
Codec ID/Info : Picture based subtitle format used on DVDs
Duration : 21 min 48 s
Bit rate : 8 609 b/s
Count of elements : 365
Stream size : 1.34 MiB (0%)
Language : Spanish
Default : No
Forced : No

Subtitle #5
ID : 10
Format : VobSub
Muxing mode : zlib
Codec ID : S_VOBSUB
Codec ID/Info : Picture based subtitle format used on DVDs
Duration : 21 min 48 s
Bit rate : 9 268 b/s
Count of elements : 365
Stream size : 1.45 MiB (0%)
Language : Portuguese
Default : No
Forced : No

Subtitle #6
ID : 11
Format : VobSub
Muxing mode : zlib
Codec ID : S_VOBSUB
Codec ID/Info : Picture based subtitle format used on DVDs
Duration : 21 min 48 s
Bit rate : 8 968 b/s
Count of elements : 372
Stream size : 1.40 MiB (0%)
Language : Danish
Default : No
Forced : No

Subtitle #7
ID : 12
Format : VobSub
Muxing mode : zlib
Codec ID : S_VOBSUB
Codec ID/Info : Picture based subtitle format used on DVDs
Duration : 21 min 48 s
Bit rate : 8 890 b/s
Count of elements : 373
Stream size : 1.39 MiB (0%)
Language : Finnish
Default : No
Forced : No

Subtitle #8
ID : 13
Format : VobSub
Muxing mode : zlib
Codec ID : S_VOBSUB
Codec ID/Info : Picture based subtitle format used on DVDs
Duration : 21 min 48 s
Bit rate : 8 723 b/s
Count of elements : 373
Stream size : 1.36 MiB (0%)
Language : Norwegian Bokmal
Default : No
Forced : No

Subtitle #9
ID : 14
Format : VobSub
Muxing mode : zlib
Codec ID : S_VOBSUB
Codec ID/Info : Picture based subtitle format used on DVDs
Duration : 21 min 48 s
Bit rate : 8 918 b/s
Count of elements : 373
Stream size : 1.39 MiB (0%)
Language : Swedish
Default : No
Forced : No

Subtitle #10
ID : 15
Format : VobSub
Muxing mode : zlib
Codec ID : S_VOBSUB
Codec ID/Info : Picture based subtitle format used on DVDs
Duration : 20 min 40 s
Bit rate : 19 b/s
Count of elements : 2
Stream size : 2.90 KiB (0%)
Language : Spanish
Default : No
Forced : No

Subtitle #11
ID : 16
Format : VobSub
Muxing mode : zlib
Codec ID : S_VOBSUB
Codec ID/Info : Picture based subtitle format used on DVDs
Duration : 20 min 40 s
Bit rate : 20 b/s
Count of elements : 2
Stream size : 3.13 KiB (0%)
Language : Portuguese
Default : No
Forced : No

Menu
00:00:00.000 : en:Chapter 01
00:01:11.112 : en:Chapter 02
00:02:36.114 : en:Chapter 03
00:11:59.093 : en:Chapter 04
00:19:35.299 : en:Chapter 05
00:21:24.574 : en:Chapter 06

Source Information

Code:

Release:
he.Big.Bang.Theory.S10.1080p.BluRay.DTS-HD.MA5.1.H.264-o0o (Thanks!)


Note From QxR:

Quote:

Whilst we are happy for our releases to be re-posted on a platform we aren't on, please do so in an 'as-is' format. We ask that you do not create a new torrent, include all descriptions you see above including the QxR logo, tags, notes and screenshots. If you'd like to become a permanent poster on a website we don't post to, feel free to get in contact with a QxR member.


Files:

The Big Bang Theory (2007) Season 10 S10 + Extras (1080p BluRay x265 HEVC 10bit AAC 5.1 RCVR) Featurettes
  • #JustAskBBT.mkv (99.8 MB)
  • Best of The Big Bang Theory 2016 Comic-Con Panel.mkv (632.2 MB)
  • Gag Reel.mkv (185.5 MB)
  • Mad Props.mkv (205.5 MB)
  • The Ever-Expanding Universe of The Big Bang Theory.mkv (354.3 MB)
  • Who's the Baby Now.mkv (210.5 MB)
  • The Big Bang Theory (2007) - S10E01 - The Conjugal Conjecture (1080p BluRay x265 RCVR).mkv (749.3 MB)
  • The Big Bang Theory (2007) - S10E02 - The Military Miniaturization (1080p BluRay x265 RCVR).mkv (642.6 MB)
  • The Big Bang Theory (2007) - S10E03 - The Dependence Transcendence (1080p BluRay x265 RCVR).mkv (652.6 MB)
  • The Big Bang Theory (2007) - S10E04 - The Cohabitation Experimentation (1080p BluRay x265 RCVR).mkv (720.2 MB)
  • The Big Bang Theory (2007) - S10E05 - The Hot Tub Contamination (1080p BluRay x265 RCVR).mkv (633.4 MB)
  • The Big Bang Theory (2007) - S10E06 - The Fetal Kick Catalyst (1080p BluRay x265 RCVR).mkv (720.4 MB)
  • The Big Bang Theory (2007) - S10E07 - The Veracity Elasticity (1080p BluRay x265 RCVR).mkv (858.3 MB)
  • The Big Bang Theory (2007) - S10E08 - The Brain Bowl Incubation (1080p BluRay x265 RCVR).mkv (593.2 MB)
  • The Big Bang Theory (2007) - S10E09 - The Geology Elevation (1080p BluRay x265 RCVR).mkv (667.5 MB)
  • The Big Bang Theory (2007) - S10E10 - The Property Division Collision (1080p BluRay x265 RCVR).mkv (735.4 MB)
  • The Big Bang Theory (2007) - S10E11 - The Birthday Synchronicity (1080p BluRay x265 RCVR).mkv (703.3 MB)
  • The Big Bang Theory (2007) - S10E12 - The Holiday Summation (1080p BluRay x265 RCVR).mkv (705.5 MB)
  • The Big Bang Theory (2007) - S10E13 - The Romance Recalibration (1080p BluRay x265 RCVR).mkv (602.5 MB)
  • The Big Bang Theory (2007) - S10E14 - The Emotion Detection Automation (1080p BluRay x265 RCVR).mkv (719.2 MB)
  • The Big Bang Theory (2007) - S10E15 - The Locomotion Reverberation (1080p BluRay x265 RCVR).mkv (657.0 MB)
  • The Big Bang Theory (2007) - S10E16 - The Allowance Evaporation (1080p BluRay x265 RCVR).mkv (614.5 MB)
  • The Big Bang Theory (2007) - S10E17 - The Comic-Con Conundrum (1080p BluRay x265 RCVR).mkv (654.5 MB)
  • The Big Bang Theory (2007) - S10E18 - The Escape Hatch Identification (1080p BluRay x265 RCVR).mkv (634.7 MB)
  • The Big Bang Theory (2007) - S10E19 - The Collaboration Fluctuation (1080p BluRay x265 RCVR).mkv (658.4 MB)
  • The Big Bang Theory (2007) - S10E20 - The Recollection Dissipation (1080p BluRay x265 RCVR).mkv (675.3 MB)
  • The Big Bang Theory (2007) - S10E21 - The Separation Agitation (1080p BluRay x265 RCVR).mkv (846.2 MB)
  • The Big Bang Theory (2007) - S10E22 - The Cognition Regeneration (1080p BluRay x265 RCVR).mkv (726.6 MB)
  • The Big Bang Theory (2007) - S10E23 - The Gyroscopic Collapse (1080p BluRay x265 RCVR).mkv (667.4 MB)
  • The Big Bang Theory (2007) - S10E24 - The Long Distance Dissonance (1080p BluRay x265 RCVR).mkv (708.1 MB)

There are currently no comments. Feel free to leave one :)

Code:

  • udp://tracker.coppersurfer.tk:6969/announce
  • udp://tracker.zer0day.to:1337/announce
  • udp://tracker.opentrackr.org:1337/announce
  • udp://tracker.torrent.eu.org:451/announce
  • udp://tracker.leechers-paradise.org:6969/announce
  • udp://p4p.arenabg.com:1337/announce
  • udp://tracker.internetwarriors.net:1337/announce
Sitemap