Windows 8.1 Pro VL. | Photos - Business Start-Up 52 | Sagas Films

The Big Bang Theory (2007) Season 9 S09 + Extras (1080p BluRay x2...

  • Category TV
  • Type HEVC/x265
  • Language English
  • Total size 17.8 GB
  • Uploaded By QxR
  • Downloads 230
  • Last checked 38 minutes ago
  • Date uploaded 3 days ago
  • Seeders 34
  • Leechers 25

Infohash : 9475D0798AD08B17B96C81EED67EB38CAD93E671



http://www.imdb.com/title/tt0898266/



Note from Encoder:

Includes English and Spanish audio tracks with all available bonus content.





Media Information

Code:

General
Format : Matroska
Format version : Version 4 / Version 2
File size : 640 MiB
Duration : 20 min 26 s
Overall bit rate : 4 380 kb/s
Encoded date : UTC 2018-10-30 05:26:22
Writing application : mkvmerge v20.0.0 ('I Am The Sun') 64-bit
Writing library : libebml v1.3.5 + libmatroska v1.4.8
Cover : Yes
Attachments : cover.jpg
Writing frontend : StaxRip v1.7.0.6

Video
ID : 1
Format : HEVC
Format/Info : High Efficiency Video Coding
Format profile : Main [email protected]@Main
Codec ID : V_MPEGH/ISO/HEVC
Duration : 20 min 26 s
Bit rate : 3 978 kb/s
Width : 1 920 pixels
Height : 1 080 pixels
Display aspect ratio : 16:9
Frame rate mode : Constant
Frame rate : 23.976 (24000/1001) FPS
Color space : YUV
Chroma subsampling : 4:2:0
Bit depth : 10 bits
Bits/(Pixel*Frame) : 0.080
Stream size : 582 MiB (91%)
Writing library : x265 2.9+1-169e76b6bbcc:[Windows][MSVC 1900][64 bit] 10bit
Encoding settings : cpuid=1111039 / frame-threads=3 / numa-pools=8 / wpp / no-pmode / no-pme / no-psnr / no-ssim / log-level=2 / input-csp=1 / input-res=1920x1080 / interlace=0 / total-frames=29401 / level-idc=0 / high-tier=1 / uhd-bd=0 / ref=5 / no-allow-non-conformance / no-repeat-headers / annexb / no-aud / no-hrd / info / hash=0 / no-temporal-layers / open-gop / min-keyint=23 / keyint=250 / gop-lookahead=0 / bframes=8 / b-adapt=2 / b-pyramid / bframe-bias=0 / rc-lookahead=80 / lookahead-slices=4 / scenecut=40 / radl=0 / no-intra-refresh / ctu=64 / min-cu-size=8 / no-rect / no-amp / max-tu-size=32 / tu-inter-depth=1 / tu-intra-depth=1 / limit-tu=0 / rdoq-level=2 / dynamic-rd=0.00 / no-ssim-rd / signhide / no-tskip / nr-intra=0 / nr-inter=0 / no-constrained-intra / no-strong-intra-smoothing / max-merge=4 / limit-refs=3 / limit-modes / me=3 / subme=5 / merange=57 / temporal-mvp / weightp / weightb / no-analyze-src-pics / deblock=-3:-3 / no-sao / no-sao-non-deblock / rd=4 / no-early-skip / no-rskip / no-fast-intra / no-tskip-fast / no-cu-lossless / b-intra / no-splitrd-skip / rdpenalty=0 / psy-rd=1.50 / psy-rdoq=1.80 / no-rd-refine / no-lossless / cbqpoffs=0 / crqpoffs=0 / rc=crf / crf=22.0 / qcomp=0.60 / qpstep=4 / stats-write=0 / stats-read=0 / ipratio=1.40 / pbratio=1.30 / aq-mode=3 / aq-strength=0.90 / cutree / zone-count=0 / no-strict-cbr / qg-size=32 / no-rc-grain / qpmax=69 / qpmin=0 / no-const-vbv / sar=0 / overscan=0 / videoformat=5 / range=0 / colorprim=2 / transfer=2 / colormatrix=2 / chromaloc=0 / display-window=0 / max-cll=0,0 / min-luma=0 / max-luma=1023 / log2-max-poc-lsb=8 / vui-timing-info / vui-hrd-info / slices=1 / no-opt-qp-pps / no-opt-ref-list-length-pps / no-multi-pass-opt-rps / scenecut-bias=0.05 / no-opt-cu-delta-qp / no-aq-motion / no-hdr / no-hdr-opt / no-dhdr10-opt / no-idr-recovery-sei / analysis-reuse-level=5 / scale-factor=0 / refine-intra=0 / refine-inter=0 / refine-mv=0 / no-limit-sao / ctu-info=0 / no-lowpass-dct / refine-mv-type=0 / copy-pic=1 / max-ausize-factor=1.0 / no-dynamic-refine / no-single-sei
Default : Yes
Forced : No

Audio #1
ID : 2
Format : AAC
Format/Info : Advanced Audio Codec
Format profile : LC
Codec ID : A_AAC
Duration : 20 min 26 s
Bit rate : 241 kb/s
Channel(s) : 6 channels
Channel positions : Front: L C R, Side: L R, LFE
Sampling rate : 48.0 kHz
Frame rate : 46.875 FPS (1024 spf)
Compression mode : Lossy
Delay relative to video : 20 ms
Stream size : 35.2 MiB (6%)
Language : English
Default : No
Forced : No

Audio #2
ID : 3
Format : AAC
Format/Info : Advanced Audio Codec
Format profile : HE-AAC / LC
Codec ID : A_AAC
Duration : 20 min 26 s
Bit rate : 80.0 kb/s
Channel(s) : 2 channels
Channel positions : Front: L R
Sampling rate : 48.0 kHz / 24.0 kHz
Frame rate : 23.438 FPS (1024 spf)
Compression mode : Lossy
Delay relative to video : 40 ms
Stream size : 11.7 MiB (2%)
Language : Spanish
Default : No
Forced : No

Subtitle #1
ID : 4
Format : VobSub
Muxing mode : zlib
Codec ID : S_VOBSUB
Codec ID/Info : Picture based subtitle format used on DVDs
Duration : 20 min 21 s
Bit rate : 15.5 kb/s
Count of elements : 351
Stream size : 2.25 MiB (0%)
Language : English
Default : No
Forced : No

Subtitle #2
ID : 5
Format : VobSub
Muxing mode : zlib
Codec ID : S_VOBSUB
Codec ID/Info : Picture based subtitle format used on DVDs
Duration : 20 min 21 s
Bit rate : 12.5 kb/s
Count of elements : 331
Stream size : 1.83 MiB (0%)
Language : French
Default : No
Forced : No

Subtitle #3
ID : 6
Format : VobSub
Muxing mode : zlib
Codec ID : S_VOBSUB
Codec ID/Info : Picture based subtitle format used on DVDs
Duration : 20 min 21 s
Bit rate : 13.3 kb/s
Count of elements : 337
Stream size : 1.94 MiB (0%)
Language : Spanish
Default : No
Forced : No

Subtitle #4
ID : 7
Format : VobSub
Muxing mode : zlib
Codec ID : S_VOBSUB
Codec ID/Info : Picture based subtitle format used on DVDs
Duration : 20 min 21 s
Bit rate : 14.1 kb/s
Count of elements : 337
Stream size : 2.05 MiB (0%)
Language : Spanish
Default : No
Forced : No

Subtitle #5
ID : 8
Format : VobSub
Muxing mode : zlib
Codec ID : S_VOBSUB
Codec ID/Info : Picture based subtitle format used on DVDs
Duration : 20 min 21 s
Bit rate : 13.9 kb/s
Count of elements : 338
Stream size : 2.03 MiB (0%)
Language : Portuguese
Default : No
Forced : No

Subtitle #6
ID : 9
Format : VobSub
Muxing mode : zlib
Codec ID : S_VOBSUB
Codec ID/Info : Picture based subtitle format used on DVDs
Duration : 20 min 21 s
Bit rate : 13.5 kb/s
Count of elements : 338
Stream size : 1.96 MiB (0%)
Language : Danish
Default : No
Forced : No

Subtitle #7
ID : 10
Format : VobSub
Muxing mode : zlib
Codec ID : S_VOBSUB
Codec ID/Info : Picture based subtitle format used on DVDs
Duration : 20 min 21 s
Bit rate : 13.1 kb/s
Count of elements : 338
Stream size : 1.90 MiB (0%)
Language : Finnish
Default : No
Forced : No

Subtitle #8
ID : 11
Format : VobSub
Muxing mode : zlib
Codec ID : S_VOBSUB
Codec ID/Info : Picture based subtitle format used on DVDs
Duration : 20 min 21 s
Bit rate : 13.2 kb/s
Count of elements : 338
Stream size : 1.92 MiB (0%)
Language : Norwegian Bokmal
Default : No
Forced : No

Subtitle #9
ID : 12
Format : VobSub
Muxing mode : zlib
Codec ID : S_VOBSUB
Codec ID/Info : Picture based subtitle format used on DVDs
Duration : 20 min 21 s
Bit rate : 13.7 kb/s
Count of elements : 338
Stream size : 2.00 MiB (0%)
Language : Swedish
Default : No
Forced : No

Menu
00:00:00.000 : en:Chapter 01
00:03:49.229 : en:Chapter 02
00:10:56.906 : en:Chapter 03
00:18:47.126 : en:Chapter 04
00:19:58.447 : en:Chapter 05

Source Information

Code:

Release:
The.Big.Bang.Theory.S09.1080p.BluRay.DTS-HD.MA5.1.H.264-COASTER (Thanks!)


Note From QxR:

Quote:

Whilst we are happy for our releases to be re-posted on a platform we aren't on, please do so in an 'as-is' format. We ask that you do not create a new torrent, include all descriptions you see above including the QxR logo, tags, notes and screenshots. If you'd like to become a permanent poster on a website we don't post to, feel free to get in contact with a QxR member.


Files:

The Big Bang Theory (2007) Season 9 S09 + Extras (1080p BluRay x265 HEVC 10bit AAC 5.1 RCVR) Featurettes #JustAskBBT
  • If I Had to Go to Mars.mkv (114.4 MB)
  • Who Will Get the Couch.mkv (87.6 MB)
  • Gag Reel.mkv (130.0 MB)
  • Love Is Rocket Science.mkv (191.6 MB)
  • The Big 200!.mkv (196.1 MB)
  • The Big Bang Theory 2015 Comi-Con Panel.mkv (464.2 MB)
  • The Big Bang Theory Gives Back.mkv (131.0 MB)
    • The Big Bang Theory (2007) - S09E01 - The Matrimonial Momentum (1080p BluRay x265 RCVR).mkv (640.3 MB)
    • The Big Bang Theory (2007) - S09E02 - The Separation Oscillation (1080p BluRay x265 RCVR).mkv (846.7 MB)
    • The Big Bang Theory (2007) - S09E03 - The Bachelor Party Corrosion (1080p BluRay x265 RCVR).mkv (654.7 MB)
    • The Big Bang Theory (2007) - S09E04 - The 2003 Approximation (1080p BluRay x265 RCVR).mkv (710.5 MB)
    • The Big Bang Theory (2007) - S09E05 - The Perspiration Implementation (1080p BluRay x265 RCVR).mkv (702.4 MB)
    • The Big Bang Theory (2007) - S09E06 - The Helium Insufficiency (1080p BluRay x265 RCVR).mkv (628.5 MB)
    • The Big Bang Theory (2007) - S09E07 - The Spock Resonance (1080p BluRay x265 RCVR).mkv (626.9 MB)
    • The Big Bang Theory (2007) - S09E08 - The Mystery Date Observation (1080p BluRay x265 RCVR).mkv (585.9 MB)
    • The Big Bang Theory (2007) - S09E09 - The Platonic Permutation (1080p BluRay x265 RCVR).mkv (685.6 MB)
    • The Big Bang Theory (2007) - S09E10 - The Earworm Reverberation (1080p BluRay x265 RCVR).mkv (710.8 MB)
    • The Big Bang Theory (2007) - S09E11 - The Opening Night Excitation (1080p BluRay x265 RCVR).mkv (599.3 MB)
    • The Big Bang Theory (2007) - S09E12 - The Sales Call Sublimation (1080p BluRay x265 RCVR).mkv (574.0 MB)
    • The Big Bang Theory (2007) - S09E13 - The Empathy Optimization (1080p BluRay x265 RCVR).mkv (602.6 MB)
    • The Big Bang Theory (2007) - S09E14 - The Meemaw Materialization (1080p BluRay x265 RCVR).mkv (712.4 MB)
    • The Big Bang Theory (2007) - S09E15 - The Valentino Submergence (1080p BluRay x265 RCVR).mkv (1.6 GB)
    • The Big Bang Theory (2007) - S09E16 - The Positive Negative Reaction (1080p BluRay x265 RCVR).mkv (633.2 MB)
    • The Big Bang Theory (2007) - S09E17 - The Celebration Experimentation (1080p BluRay x265 RCVR).mkv (707.2 MB)
    • The Big Bang Theory (2007) - S09E18 - The Application Deterioration (1080p BluRay x265 RCVR).mkv (598.9 MB)
    • The Big Bang Theory (2007) - S09E19 - The Solder Excursion Diversion (1080p BluRay x265 RCVR).mkv (814.8 MB)
    • The Big Bang Theory (2007) - S09E20 - The Big Bear Precipitation (1080p BluRay x265 RCVR).mkv (681.1 MB)
    • The Big Bang Theory (2007) - S09E21 - The Viewing Party Combustion (1080p BluRay x265 RCVR).mkv (635.3 MB)
    • The Big Bang Theory (2007) - S09E22 - The Fermentation Bifurcation (1080p BluRay x265 RCVR).mkv (741.4 MB)
    • The Big Bang Theory (2007) - S09E23 - The Line Substitution Solution (1080p BluRay x265 RCVR).mkv (626.1 MB)
    • The Big Bang Theory (2007) - S09E24 - The Convergence Convergence (1080p BluRay x265 RCVR).mkv (602.8 MB)

There are currently no comments. Feel free to leave one :)

Code:

  • udp://tracker.coppersurfer.tk:6969/announce
  • udp://tracker.zer0day.to:1337/announce
  • udp://tracker.opentrackr.org:1337/announce
  • udp://tracker.torrent.eu.org:451/announce
  • udp://tracker.leechers-paradise.org:6969/announce
  • udp://p4p.arenabg.com:1337/announce
  • udp://tracker.internetwarriors.net:1337/announce
Sitemap