The Hate U Give 2018 1080p HC WEBRip x264 [MW]

  • Category Movies
  • Type HD
  • Language English
  • Total size 2.2 GB
  • Uploaded By moviezworldz
  • Downloads 253
  • Last checked 2 months ago
  • Date uploaded 2 months ago
  • Seeders 21
  • Leechers 9

The Hate U Give

DramaCrime

Raised in a poverty-stricken slum, a 16-year-old girl named Starr now attends a suburban prep school. After she witnesses a police officer shoot her unarmed best friend, she's torn between her two very different worlds as she tries to speak her truth.

Infohash : 4F21BB99070D853FED91BC87DC7C532F47468106





General
Format : Matroska
Format version : Version 4 / Version 2
File size : 2.19 GiB
Duration : 2 h 7 min
Overall bit rate : 2 447 kb/s

Video
ID : 1
Format : AVC
Format/Info : Advanced Video Codec
Format profile : [email protected]
Format settings : CABAC / 4 Ref Frames
Format settings, CABAC : Yes
Format settings, RefFrames : 4 frames
Codec ID : V_MPEG4/ISO/AVC
Duration : 2 h 7 min
Bit rate : 2 200 kb/s
Width : 1 920 pixels
Height : 800 pixels
Display aspect ratio : 2.40:1
Frame rate mode : Constant
Frame rate : 23.934 FPS
Color space : YUV
Chroma subsampling : 4:2:0
Bit depth : 8 bits
Scan type : Progressive
Bits/(Pixel*Frame) : 0.060
Stream size : 1.96 GiB (89%)
Writing library : x264 core 155 r2901 7d0ff22
Default : Yes
Forced : No

Audio
ID : 2
Format : AAC
Format/Info : Advanced Audio Codec
Format profile : LC
Codec ID : A_AAC-2
Duration : 2 h 7 min
Bit rate : 256 kb/s
Channel(s) : 2 channels
Channel positions : Front: L R
Sampling rate : 48.0 kHz
Frame rate : 46.875 FPS (1024 SPF)
Compression mode : Lossy
Stream size : 234 MiB (10%)
Language : English
Default : Yes
Forced : No


Click To Enlarge Image







Files:

The Hate U Give 2018 1080p HC WEBRip x264 [MW]
  • The Hate U Give 2018 1080p HC WEBRip x264 [MW].mkv (2.2 GB)

There are currently no comments. Feel free to leave one :)

Code:

  • udp://tracker.coppersurfer.tk:6969/announce
  • udp://tracker.pirateparty.gr:6969/announce
  • udp://tracker.coppersurfer.tk:6969/announce
  • udp://tracker.tiny-vps.com:6969/announce
  • udp://9.rarbg.me:2740/announce
  • udp://9.rarbg.to:2790/announce
  • udp://public.popcorn-tracker.org:6969/announce
  • udp://tracker.vanitycore.co:6969/announce
  • udp://tracker.opentrackr.org:1337/announce
  • udp://open.stealth.si:80/announce
Sitemapحلقة 23 انمي Monster Strike The Animation الحلقة 23 2018 HDTv IMDB 4.9 انمي Monster Strike The Animation الحلقة 23 اكشن Monster Strike The Animation الحلقة 23 مشاهدة وتحميل انمي الاكشن والفانتازيا Monster Strike The Animation مترجم بجودة HD اون لاين... | December 28, 2018 | 5 5 2018-10-07The Last Ship - Warriors