18+ Conspiracy X 2018 UNCENSORED Movies 1080p HDRip x264 AAC with...

  • Category Movies
  • Type HD
  • Language English
  • Total size 982.7 MB
  • Uploaded By nehalpuja
  • Downloads 575
  • Last checked 1 hour ago
  • Date uploaded 8 hours ago
  • Seeders 107
  • Leechers 205

Infohash : 78719AD1CD91518E8F718B719EE8AFDF4769749C

18+ Conspiracy X 2018 UNCENSORED Movies 1080p HDRip x264 AAC with Sample ☻rDX☻
===============================================================================================

SCREEN SHOTS:



or

http://iphonehosting.eu/2018/10/software/1.html

File size : 975 MiB
Duration : 1 h 41 min
Overall bit rate : 1 347 kb/s
Movie name : 18+ Conspiracy X 2018 UNCENSORED Movies 1080p HDRip x264 AAC ☻rDX☻

Video
ID : 2
Format : AVC
Format/Info : Advanced Video Codec
Format profile : [email protected]
Format settings, CABAC : Yes
Format settings, ReFrames : 5 frames
Codec ID : V_MPEG4/ISO/AVC
Duration : 1 h 41 min
Bit rate : 1 280 kb/s
Width : 1 920 pixels
Height : 1 080 pixels
Display aspect ratio : 16:9
Frame rate mode : Constant
Frame rate : 23.976 (24000/1001) FPS
Color space : YUV
Chroma subsampling : 4:2:0
Bit depth : 8 bits
Scan type : Progressive
Bits/(Pixel*Frame) : 0.026
Stream size : 909 MiB (93%)
Title : ☻rDX☻
Writing library : x264

Audio
ID : 1
Format : MPEG Audio
Format version : Version 1
Format profile : Layer 3
Mode : Joint stereo
Mode extension : MS Stereo
Codec ID : A_MPEG/L3
Codec ID/Hint : MP3
Duration : 1 h 41 min
Bit rate mode : Constant
Bit rate : 64.0 kb/s
Channel(s) : 2 channels
Sampling rate : 44.1 kHz
Compression mode : Lossy
Stream size : 46.3 MiB (5%)
Title : ☻rDX☻
Default : Yes
Forced : No

http://www.imdb.com/title/tt5831668

Files:

18+ Conspiracy X 2018 UNCENSORED Movies 1080p HDRip x264 AAC with Sample ☻rDX☻
  • Sample ~ 18+ Conspiracy X 2018 UNCENSORED Movies 1080p HDRip x264 AAC ☻rDX☻.mkv (7.4 MB)
  • 18+ Conspiracy X 2018 UNCENSORED Movies 1080p HDRip x264 AAC ☻rDX☻.mkv (975.2 MB)

There are currently no comments. Feel free to leave one :)

Code:

  • udp://tracker.coppersurfer.tk:6969/announce
  • udp://tracker.leechers-paradise.org:6969/announce
  • udp://tracker.pirateparty.gr:6969/announce
  • udp://eddie4.nl:6969/announce
  • udp://tracker.zer0day.to:1337/announce
  • udp://9.rarbg.me:2710/announce
  • udp://9.rarbg.to:2710/announce
  • udp://public.popcorn-tracker.org:6969/announce
  • udp://p4p.arenabg.ch:1337/announce
  • udp://tracker.vanitycore.co:6969/announce
  • udp://ipv4.tracker.harry.lu:80/announce
  • udp://tracker.opentrackr.org:1337/announce
  • udp://p4p.arenabg.com:1337/announce
  • udp://shadowshq.yi.org:6969/announce
SitemapСкачать | Русский | Journey Into Fear: Part 2