Knuckleball.2018.1080p.WEB-DL.DD5.1.H.264.CRO-DIAMOND

  • Category Movies
  • Type HD
  • Language English
  • Total size 3.0 GB
  • Uploaded By dmd12
  • Downloads 317
  • Last checked 1 hour ago
  • Date uploaded 21 hours ago
  • Seeders 19
  • Leechers 12

Knuckleball

Alone, and targeted on an isolated farm, 12 year old Henry finds himself and the center of a maelstrom of terror, and a dark family legacy, when his secretive grandfather dies suddenly in the night.

Infohash : 48036825CCA64E7A42FE531D69CCFB99BFB69FAA




Code:

General
Unique ID : 245069505136385575686281974136532321505 (0xB85EAB7A9F8EC8569CFD13A9EC3344E1)
Complete name : Knuckleball.2018.1080p.WEB-DL.DD5.1.H.264.CRO-DIAMOND.mkv
Format : Matroska
Format version : Version 4 / Version 2
File size : 3.03 GiB
Duration : 1h 28mn
Overall bit rate : 4 888 Kbps
Movie name : CRO DIAMOND 1080p
Encoded date : UTC 2018-10-08 17:13:39
Writing application : mkvmerge v15.0.0 ('Duel with the Devil') 32-bit
Writing library : libebml v1.3.5 + libmatroska v1.4.5
DURATION : 01:28:37.545000000
NUMBER_OF_FRAMES : 812
NUMBER_OF_BYTES : 19902
_STATISTICS_WRITING_APP : mkvmerge v15.0.0 ('Duel with the Devil') 32-bit
_STATISTICS_WRITING_DATE_UTC : 2018-10-08 17:13:39
_STATISTICS_TAGS : BPS DURATION NUMBER_OF_FRAMES NUMBER_OF_BYTES

Video
ID : 1
Format : AVC
Format/Info : Advanced Video Codec
Format profile : [email protected]
Format settings, CABAC : Yes
Format settings, ReFrames : 5 frames
Codec ID : V_MPEG4/ISO/AVC
Duration : 1h 28mn
Bit rate : 4 407 Kbps
Width : 1 920 pixels
Height : 788 pixels
Display aspect ratio : 2.40:1
Frame rate mode : Constant
Frame rate : 23.976 fps
Color space : YUV
Chroma subsampling : 4:2:0
Bit depth : 8 bits
Scan type : Progressive
Bits/(Pixel*Frame) : 0.121
Stream size : 2.73 GiB (90%)
Title : CRO DIAMOND 1080p
Language : English
Default : Yes
Forced : No
Color range : Limited
Color primaries : BT.709
Transfer characteristics : BT.709
Matrix coefficients : BT.709

Audio
ID : 2
Format : AC-3
Format/Info : Audio Coding 3
Mode extension : CM (complete main)
Format settings, Endianness : Big
Codec ID : A_AC3
Duration : 1h 28mn
Bit rate mode : Constant
Bit rate : 384 Kbps
Channel(s) : 6 channels
Channel positions : Front: L C R, Side: L R, LFE
Sampling rate : 48.0 KHz
Compression mode : Lossy
Delay relative to video : -42ms
Stream size : 244 MiB (8%)
Language : English
Default : Yes
Forced : No

Text
ID : 3
Format : UTF-8
Codec ID : S_TEXT/UTF8
Codec ID/Info : UTF-8 Plain Text
Language : English
Default : Yes
Forced : No

Menu
00:00:00.000 : en:1
00:10:51.026 : en:2
00:19:33.131 : en:3
00:29:45.493 : en:4
00:43:30.818 : en:5
00:53:48.310 : en:6
01:05:52.492 : en:7
01:13:58.144 : en:8
01:25:25.498 : en:9

Files:

  • Knuckleball.2018.1080p.WEB-DL.DD5.1.H.264.CRO-DIAMOND.mkv (3.0 GB)

There are currently no comments. Feel free to leave one :)

SitemapNutrition Month Celebration Essay | Delicate Tulle High Collar Ball Gown Wedding Dresses With Lace Ap... | Red Dead Redemption 2 soluce